09
янв
2019

Рацвет, 1 сезон 1-6 серия из 6 /Bloom [IdeaFilm] (2019)

Перевод: Профессиональный (многоголосый, закадровый) IdeaFilm
Субтитры: отсутствуют
Формат: WEBRip, MKV, h.264, AC3
Страна: США
Режиссер: Джон Кёрран, Мат Кинг
Жанр: Драма, детектив, фантастика, мистика, триллер
Всего серий: 6
Продолжительность: 6 х ~00:50:00
Год выпуска: 2019

В ролях: Брайан Браун, Энн Беннетт, Райан Корр, Дэниэл Хеншэлл, Род Муллинар, Терри Норрис, Никки Шилз, Фиби Тонкин, Джеки Уивер

Описание: Год минул с того трагического дня, когда в результате наводнения погибли пять человек. Жители города помнят о природном катаклизме и его жертвах. Неожиданно в границах городка обнаруживают странное растение, прибавляющее в размерах с невероятной скоростью. Выясняется, что удивительный представитель неизвестной флоры обладает невероятными свойствами и дарует человеку вечную молодость. Неужели природа решила сделать подарок местным жителям после тех ужасных событий? Или же это очередная злая шутка судьбы, которая заставит людей сойти с ума? Многие уже готовы пойти на убийство, чтобы не выдать тайну чудодейственного растения.


Рейтинг на: [imdb=http://www.imdb.com/title/tt8888322/]

Видео: 1920x960 (2,000), 25,000 fps, AVC (х264), Main@L4.1, ~6881 kbps avg, 0.149 bit/pixel
Аудио #1 Rus: :48 kHz, AC3 Dolby Digital, 3/2 (L,C,R,l,r) + LFE ch, ~384 kbps
Аудио #1 Eng: :48 kHz, AC3 Dolby Digital, 3/2 (L,C,R,l,r) + LFE ch, ~384 kbps

Внимание, присутствует реклама!

MediaInfo

бщее
Уникальный идентификатор : 236440144279245873060088780824381594507 (0xB1E0B723F288D7E9EF9EA50FD4319B8B)
Полное имя : D:IDEAFILMBloom.S01.WEBRip.1080pBloom.S01E01.WEBRip.1080p-IdeaFilm.mkv
Формат : Matroska
Версия формата : Version 4
Размер файла : 2,82 Гбайт
Продолжительность : 52 м. 46 с.
Общий поток : 7647 Кбит/сек
Дата кодирования : UTC 2019-01-09 13:06:45
Программа кодирования : mkvmerge v25.0.0 ('Prog Noir') 64-bit
Библиотека кодирования : libebml v1.3.6 + libmatroska v1.4.9

Видео
Идентификатор : 1
Формат : AVC
Формат/Информация : Advanced Video Codec
Профиль формата : Main@L4.1
Настройки формата : CABAC / 4 Ref Frames
Параметр CABAC формата : Да
Параметр RefFrames формата : 4 кадра
Идентификатор кодека : V_MPEG4/ISO/AVC
Продолжительность : 52 м. 46 с.
Битрейт : 6881 Кбит/сек
Ширина : 1920 пикселей
Высота : 960 пикселей
Соотношение сторон : 2,000
Режим частоты кадров : Постоянный
Частота кадров : 25,000 кадров/сек
Цветовое пространство : YUV
Субдискретизация насыщенности : 4:2:0
Битовая глубина : 8 бит
Тип развёртки : Прогрессивная
Бит/(Пиксели*Кадры) : 0.149
Размер потока : 2,54 Гбайт (90%)
Язык : English
Default : Да
Forced : Нет
Цветовой диапазон : Limited
Основные цвета : BT.709
Характеристики трансфера : BT.709
Коэффициенты матрицы : BT.709

Аудио #1
Идентификатор : 2
Формат : AC-3
Формат/Информация : Audio Coding 3
Коммерческое название : Dolby Digital
Идентификатор кодека : A_AC3
Продолжительность : 52 м. 46 с.
Вид битрейта : Постоянный
Битрейт : 384 Кбит/сек
Каналы : 6 каналов
Channel layout : L R C LFE Ls Rs
Частота : 48,0 КГц
Частота кадров : 31,250 кадров/сек (1536 SPF)
Битовая глубина : 16 бит
Метод сжатия : С потерями
Размер потока : 145 Мбайт (5%)
Заголовок : IdeaFilm
Язык : Russian
ServiceKind/String : Complete Main
Default : Да
Forced : Нет

Аудио #2
Идентификатор : 3
Формат : AC-3
Формат/Информация : Audio Coding 3
Идентификатор кодека : A_AC3
Продолжительность : 52 м. 6 с.
Битрейт : 384 Кбит/сек
Каналы : 6 каналов
Частота : 48,0 КГц
Частота кадров : 31,250 кадров/сек (1536 SPF)
Метод сжатия : С потерями
Размер потока : 143 Мбайт (5%)
Язык : English
Default : Нет
Forced : Нет
Видео / Зарубежные сериалы / Разное
СКАЧАТЬ БЕСПЛАТНО  [15.2 GB]